Daraku Reijou: The Animation (Raika Ken, T-Rex, Bootleg, MS Pictures) (ep. 1 of 1) [uncen] [2017, drama, school, virgin, big breast, oral, creampie, BDRip, 1080p] [jap / rus / eng / fra / chi]

Ответить на тему
Статистика раздачи [Обновить пиров]
Размер:  903 MB   |    Зарегистрирован:  5 месяца 24 дня   |   
Сидов:  22    |    Личеров:  1  
   
 
Автор Сообщение

Пал Палыч ®

Стаж: 9 месяца 25 дня

Сообщений: 1643

Создавать темы 06-Май-2020 08:20

[Цитировать]

Daraku Reijou: The Animation- Год выпуска: 2017
Жанр: drama, school, virgin, big breast, oral, creampie
Серии: ep. 1 of 1
Продолжительность: 17mn
Цензура: Отсутствует
Озвучка: Японская оригинальная
Озвучка: Английская профессиональная (полное дублирование) внутренняя
Озвучка: Русская любительская (двухголосая) [JellyCake] внешняя
Субтитры: Русские внешние ASS
Субтитры: Английские [BD] полные и надписи встроенные отключаемые SUP
Субтитры: Английские [BD], [HH] внешние ASS
Субтитры: Французские [Adopte un pervers] внешние ASS
Субтитры: Китайские [Icetail], [Maho.sub], [臉腫] внешние ASS
Режиссер: Raika Ken
Автор оригинала: Kemigawa
Студия: T-Rex, Bootleg, MS Pictures
Описание: Он обычный студент, который безумно влюблен в свою сэмпай, она отвечает ему взаимностью. Но вскоре она отдаляется от него, а потом и вовсе пропадает...
Качество видео: BDrip
Разрешение видео: 1080p
Формат видео: MKV
Видео: 1920-1080, 16-9, 23.976 fps, AVC, 5939 kbps
Аудио 1: jpn, FLAC, Stereo, 48.0 KHz, 680 kbps
Аудио 2: eng, FLAC, Stereo, 48.0 KHz, 770 kbps

Скринлист

MediaInfo

General
Unique ID : 5637836597682228109830640384950817618 (0x43DCECE1C68A9B3716F2902F72A5352)
Complete name : Daraku_reijou_[UNCEN][BDrip][RH][A78157FF].mkv
Format : Matroska
Format version : Version 4 / Version 2
File size : 880 MiB
Duration : 16 min 37 s
Overall bit rate mode : Variable
Overall bit rate : 7 394 kb/s
Movie name : [RH] Daraku Reijou The Animation [Uncensored] [Dual Audio] [BDRip] [Hi10] [1080p]
Encoded date : UTC 2018-03-25 07:08:04
Writing application : mkvmerge v19.0.0 ('Brave Captain') 64-bit
Writing library : libebml v1.3.5 + libmatroska v1.4.8
Video
ID : 1
Format : AVC
Format/Info : Advanced Video Codec
Format profile : High 10@L5.1
Format settings : CABAC / 16 Ref Frames
Format settings, CABAC : Yes
Format settings, RefFrames : 16 frames
Codec ID : V_MPEG4/ISO/AVC
Duration : 16 min 37 s
Bit rate : 5 939 kb/s
Width : 1 920 pixels
Height : 1 080 pixels
Display aspect ratio : 16:9
Frame rate mode : Constant
Frame rate : 23.976 (24000/1001) FPS
Color space : YUV
Chroma subsampling : 4:2:0
Bit depth : 10 bits
Scan type : Progressive
Bits/(Pixel*Frame) : 0.119
Stream size : 706 MiB (80%)
Title : Hi10 1080p h.264
Writing library : x264 core 155 r2901 7d0ff22
Encoding settings : cabac=1 / ref=16 / deblock=1:-2:-2 / analyse=0x3:0x113 / me=umh / subme=10 / psy=1 / psy_rd=0.80:0.10 / mixed_ref=1 / me_range=32 / chroma_me=1 / trellis=2 / 8x8dct=1 / cqm=0 / deadzone=21,11 / fast_pskip=0 / chroma_qp_offset=-3 / threads=9 / lookahead_threads=2 / sliced_threads=0 / nr=0 / decimate=0 / interlaced=0 / bluray_compat=0 / constrained_intra=0 / bframes=16 / b_pyramid=2 / b_adapt=2 / b_bias=0 / direct=3 / weightb=1 / open_gop=0 / weightp=2 / keyint=240 / keyint_min=24 / scenecut=40 / intra_refresh=0 / rc_lookahead=48 / rc=crf / mbtree=1 / crf=20.0 / qcomp=0.70 / qpmin=0 / qpmax=81 / qpstep=4 / ip_ratio=1.40 / aq=3:0.90
Language : Japanese
Default : Yes
Forced : No
Color range : Limited
Matrix coefficients : BT.709
Audio #1
ID : 2
Format : FLAC
Format/Info : Free Lossless Audio Codec
Codec ID : A_FLAC
Duration : 16 min 37 s
Bit rate mode : Variable
Bit rate : 766 kb/s
Channel(s) : 2 channels
Channel positions : Front: L R
Sampling rate : 48.0 kHz
Frame rate : 11.719 FPS (4096 SPF)
Bit depth : 16 bits
Stream size : 91.1 MiB (10%)
Title : 2.0 FLAC
Writing library : libFLAC 1.3.1 (UTC 2014-11-25)
Language : English
Default : Yes
Forced : No
Audio #2
ID : 3
Format : FLAC
Format/Info : Free Lossless Audio Codec
Codec ID : A_FLAC
Duration : 16 min 37 s
Bit rate mode : Variable
Bit rate : 681 kb/s
Channel(s) : 2 channels
Channel positions : Front: L R
Sampling rate : 48.0 kHz
Frame rate : 11.719 FPS (4096 SPF)
Bit depth : 16 bits
Stream size : 81.0 MiB (9%)
Title : 2.0 FLAC
Writing library : libFLAC 1.3.1 (UTC 2014-11-25)
Language : Japanese
Default : No
Forced : No
Text #1
ID : 4
Format : PGS
Muxing mode : zlib
Codec ID : S_HDMV/PGS
Codec ID/Info : Picture based subtitle format used on BDs/HD-DVDs
Duration : 58 s 600 ms
Bit rate : 5 540 b/s
Count of elements : 4
Stream size : 39.6 KiB (0%)
Title : Signs & Songs
Language : English
Default : Yes
Forced : No
Text #2
ID : 5
Format : PGS
Muxing mode : zlib
Codec ID : S_HDMV/PGS
Codec ID/Info : Picture based subtitle format used on BDs/HD-DVDs
Duration : 14 min 58 s
Bit rate : 30.5 kb/s
Count of elements : 344
Stream size : 3.27 MiB (0%)
Title : Dialogue
Language : English
Default : No
Forced : No
Menu
00:00:00.000 : en:Chapter 01
00:01:45.772 : en:Chapter 02
00:05:34.500 : en:Chapter 03
00:07:23.526 : en:Chapter 04
00:11:56.215 : en:Chapter 05
00:13:57.253 : en:Chapter 06
[rintor.org].t4859.torrent 
Торрент: Зарегистрирован [ 2020-05-06 08:20 ] · 011810C9E61AC096A88F703D2271A42B456CA287

Скачать .torrent

Скачать.Torrent

19 KB

Статус: проверено
Скачан: 17 раз
Размер: 903 MB
Оценка:  3.7 (Голосов: 3)
Поблагодарили: 1  Спасибо   (список)
terms.php
[Профиль] [ЛС]
Показать сообщения:    
Ответить на тему

Текущее время: 31-Окт 00:36

Часовой пояс: UTC ± 0



Вы не можете начинать темы
Вы не можете отвечать на сообщения
Вы не можете редактировать свои сообщения
Вы не можете удалять свои сообщения
Вы не можете голосовать в опросах
Вы не можете прикреплять файлы к сообщениям
Вы можете скачивать файлы